Hatena::ブログ(Diary)

なんだか煮え切らない30代日記・後半戦 このページをアンテナに追加 RSSフィード

Apple Store(Japan)

2017年01月06日 気が付くと このエントリーを含むブックマーク

40代中盤になっていた。

2009年11月27日

思うところに、添う。

どうやら仕事場で、普段、仲のいい人を裏切ることになりそうだ。

某家庭ゲームプラットホーム事業会社を紹介してもらったのだが、様々な面で無理があり、また報酬も即座に見込まれないことから、完全に腰が引けてしまいました。はあ。

2008年09月18日 秋の気配

[]PowerBook G4 1.67Ghz →MacBook 2.4GHz Intel Core 2 Duo買い替えました。

4年半くらい連れ添ったPBが昨日、基盤が焦げる匂いとともに電源が落ち、帰らぬ人となりました・・・。

即座に銀座のアップルストアへ。仕事的に修理に出してしまうとキツいので、家人に頭を下げまくりMacBook白を購入。PBから摘出したHDDFireWireの2.5Inchケースにしまって、MacBook接続。電源を入れると「移行アシスタント」が立ち上がり、するすると故人の記憶を読み出し始めました。

時間ほどで80GBほどのデータが移行完了。G4からIntelの移行なので、アプリの互換性が心配でしたがほぼ大丈夫でした。

Photoshop CS

Illutrator CS

→問題なし

Dreamweaver 8

Fireworks 8

Flash 8

→問題あり。これらはデフォルトで「アプリケーションフォルダではなく「Macintosh HD」つまりルートディレクリにインストールされるのでコピー元のドライブからコピーし、新ドライブに移動。次にコピー元の「ライブラリ」→「Application Support」→「Macromediaフォルダを同じ位置に移動させると、起動した。

Omni関連(Graffle、Plan、Outliner)は問題なし。

そんな感じで、サクサク移行完了しお仕事モードに。

さすがに早いですなあ。

2008年09月16日

[]CPIでPHP5でMySQL5でWordPress2.6.2

久々にハマりあり。

CPI2008年9月12日現在ソフトライブラリインストール出来るのがMEだけなので、最新版WP2.6.2を入れたくなりますよね。

しかしながら、そのままここからDLして、設置してインストーラーを走らせても、日本語が美味く表示されません。というか日本語で投稿、編集してもまったく表示されないし、MySQLにも反映されてないっぽい。

wp-config.php(UTF-8で保存)

mb_language("Japanese"); //追加

mb_internal_encoding("UTF-8");//追加

// 訳注:

// 「Windows の『メモ帳』でこのファイル編集しないでください。

// 他のテキストエディタ使用し、UTF-8 の BOM なし (または UTF-8N) で保存してください。

//

// ** MySQL settings ** //

define('DB_NAME', 'xABCDEF'); // データベース

define('DB_USER', 'xABCDEF'); // ユーザー

define('DB_PASSWORD', 'password'); // パスワード

define('DB_HOST', '127.0.0.1'); // ※CPI独自設定

define('DB_CHARSET', 'utf8'); // ※CPI独自設定

define('DB_PORT', '3307'); // ※CPI独自設定

define('DB_COLLATE', '');

こんな感じ。

続きはこんど。

http://ja.forums.wordpress.org/topic/86

http://gomlog.com/20070127_wordpress_euc_to_utf8/

http://www.belive.jp/archives/utf8_with_cpi/

2008年08月13日 夏休み中。

[][]ハードディスク交換。

さて、公私ともにフル稼働させているPowerBook G4 1.67Ghz ですが、HDDが100GBでは心許ない状況になってきた。

先日も、A社K氏のG4のHDD交換をして(しかもかなり手こずる。。。)、自分のも併せて10回前後は開腹してるはず(笑)。そんな時、役に立つリンクを張っておきます。

404 Not Found | このページは存在しないか、すでに削除されています

Powerbook、MacBook Proの内蔵HDDの交換

PowerBook G4 Aluminum 15" 1-1.5 GHz Repair - iFixit

no title

[][]修理、かなあ。。。

妻のEOS Kiss Digital Nを拝借していたら。

突如シャッター音が軽くなり、「Err 99」の表示。

CFカードバッテリーを抜き差ししたり、AF/MFを切り替えると治ったりもするが、根本的な解決というわけではない。

ファームウェア更新しても変わらず。

調べてみると

プロには向かないカメラなのですか? : すずちゃんのカメラ!かめら!camera!

どうやらこの辺りなのだと思う。うーん。

2008年08月08日 猛暑日。北京五輪開会

[][]西日本限定・スコールCM

7/21からオンエアされているようですね。

歌はあのキマグレン「白の日記

愛のSkal(スコール) - 南日本酪農協同株式会社

携帯着うたはJVCのCM直送便にて。

8.19追記

出演しているのはタレントさんだったのですね。

no title

2008年08月05日 雷雨

[][]やばい!笑った!

D

静岡ローカルCMらしい・・・。

2008年08月03日 二日酔い。

[]イシデ電「私という猫」

本日家族+Yクンで鶴見線に乗って工業地帯を堪能。夫婦揃ってネジが外れています。

付き合わされる娘(1歳7ヶ月)が可愛そうという話も・・・。

帰り、妻が本屋に寄るというので自分もチラとみていたところ、表題の漫画の表紙と帯に惹かれほぼジャケ買い

Amazon CAPTCHA

これ、猫好きでなくても結構滲みるなあ。

人間が書いたと思えない。これを書いたのは猫ではないか。

2008年07月30日 あぢあぢ。

[][]サイト連動

  1. マルハニチロゼリーdeゼロ

no title

WEB用にBGMオケのみループ)が気持ちよい。

CMメイキングがよい。

携帯関連のフォローがないかな。

  1. エステー宣伝部ドットコム

エステー宣伝部

キチンとしてる。

着うたはU社、IMJモバイル

2008年07月17日 転職一ヶ月。いまだ歓迎会なし。

[][][] OSX動画変換ネタ WMV3→3GPP

素材用にもらったwmvファイル(15秒のCM)をimode用に変換することとになった。

当然、携帯動画変換ちゃん【インフォシーク】Infoseek : 楽天が運営するポータルサイトを使うのですが、上手くいきません。

設定内容は「3GPPファイル、音声AAC形式一般設定」

Command0=""<%AppPath%>\cores\ffmpeg" -y -i "<%InputFile%>" -timestamp "<%TimeStamp%>" -bitexact -vcodec mpeg4 -fixaspect -s 320x240 -r 14.985 -b 190 -acodec aac -ac 1 -ar 16000 -ab 48 -f 3gp -muxvb 64 -muxab 32 "<%TemporaryFile%>.3gp""

Command1=""<%AppPath%>\cores\QT3GPPFlatten" "<%TemporaryFile%>.3gp" "<%OutputFile%>.3gp" -c QT_3GPP(MobileMP4)_QVGA_AAC.ini"

Command2="rm "<%TemporaryFile%>.3gp""

としておりました。


ログは以下のように出力されるのですが、できあがった3GPPは0kBytes

ffmpeg version CVS, build 4759, Copyright (c) 2000-2004 Fabrice Bellard configuration: ./configure --enable-mp3lame --enable-faac --enable-faad --enable-amr_nb --disable-ffplay --enable-small --enable-memalign-hack --enable-gpl --enable-xvid --enable-dts --enable-a52 --disable-vhook --enable-pthread --enable-x264 built on Nov 8 2005 22:36:20, gcc: 4.0.0 (Apple Computer, Inc. build 5026)

[wmv3 @ 0x3079c4]This decoder is not supposed to produce picture. Dont report this as a bug!

[wmv3 @ 0x3079c4]Profile 1:frmrtq_postproc=7, bitrtq_postproc=31LoopFilter=0, MultiRes=0, FastUVMV=0, Extended MV=0Rangered=0, VSTransform=1, Overlap=0, SyncMarker=0DQuant=0, Quantizer mode=0, Max B frames=0

[wmv3 @ 0x3079c4]Extra data: 8 bits left, value: 0Seems that stream 1 comes from film source: 1000.00 (1000/1) -> 30.00 (30/1)Input #0, asf, from '/Users/XXX/Desktop/001.wmv': Duration: 00:00:14.9, start: 5.000000, bitrate: 763 kb/s Stream #0.0: Audio: wmav2, 44100 Hz, stereo, 64 kb/s Stream #0.1: Video: wmv3, yuv420p, 640x480, 1000.00 fpsOutput #0, 3gp, to '/Users/XXX/Documents/3GP_Converter/Temporary/17132224.3gp': Stream #0.0: Video: mpeg4, yuv420p, 320x240, 14.99 fps, q=2-31, 190 kb/s Stream #0.1: Audio: aac, 16000 Hz, mono, 48 kb/sStream mapping: Stream #0.1 -> #0.0 Stream #0.0 -> #0.1[mpeg4 @ 0x3079c4]removing common factors from framerate[wmv3 @ 0x3079c4]This decoder is not supposed to produce picture. Dont report this as a bug!

[wmv3 @ 0x3079c4]Profile 1:frmrtq_postproc=7, bitrtq_postproc=31LoopFilter=0, MultiRes=0, FastUVMV=0, Extended MV=0Rangered=0, VSTransform=1, Overlap=0, SyncMarker=0DQuant=0, Quantizer mode=0, Max B frames=0

[wmv3 @ 0x3079c4]Extra data: 8 bits left, value: 0Press [q] to stop encoding

[wmv3 @ 0x3079c4]concealing 1200 DC, 1200 AC, 1200 MV errors

QT3GPPFlatten for 3GP_Converter Version 0.08

by Micono Utilities...

http://web.mac.com/micono

MobileHackerz (http://www.nurs.or.jp/~calcium/)のQT3GPPFlattenを参考にマックで動くものを作成しました。

QuickTimeフラット化、完了...


"001.wmv"の変換作業終了...

"/Users/XXX/Desktop/001.3gp"に変換しました...

変換所要時間:8秒

原因としては

[wmv3 @ 0x3079c4]This decoder is not supposed to produce picture. Dont report this as a bug!

これでしょう。wmv3形式はOSXだとデコードできないと。

なので、一度非公開でyoutubeに上げ、できあがったFLVを落として3GPPに変換しました。